潇湘夜雨
版主组

[港台] [全高清1080] [神幻] [2017] [西游伏妖篇(国粤双语中字)] Journey to the West:The Demons Strike Back 2017 BluRay 1080p x264.DTS-HDC 15.19GB


 


◎译  名 西游2:伏妖篇/西游降魔篇2/西游·降魔篇2/西游·降魔2

◎片  名 西游伏妖篇

◎年  代 2017

◎国  家 中国大陆/香港

◎类  别 喜剧/动作/奇幻/古装

◎语  言 汉语普通话

◎上映日期 2017-01-28(中国大陆)

◎IMDb评分  5.5/10 from 991 users

◎IMDb链接  http://www.imdb.com/title/tt5273624/

◎豆瓣评分 5.7/10 from 202,055 users

◎豆瓣链接 https://movie.douban.com/subject/25801066/

◎片  长 108分钟

◎导  演 徐克 Hark Tsui

◎主  演 吴亦凡 Kris

      林更新 Gengxin Lin

      姚晨 Chen Yao

      林允 Yun Lin

      包贝尔 Bei'Er Bao

      巴特尔 Mengke Bateer

      杨一威 Yiwei Yang

      董成鹏 Da Peng

      王丽坤 Likun Wang

      汪铎 Duo Wang

      张美娥 Mei'e Zhang


◎简  介


  历经千辛万苦,唐僧(吴亦凡 饰)、孙悟空(林更新 饰)、猪八戒(杨一威 饰)、沙僧(巴特尔 饰)这支取经团队朝着最终的目标持续前进,然而这一过程中他们不仅忍饥挨饿,还矛盾频生,似乎随时都有分裂的危险。尤其法师念念不忘死去的段小姐(舒淇 饰),而这件事也成为他和悟空之间矛盾和争吵的根源。在摆脱了蜘蛛精的纠缠后,师徒四人来至充满童趣的比丘国。比丘国王(包贝尔 饰)精神错乱,如同孩子般喜怒无常。国师九宫真人(姚晨 饰)将师徒迎进王宫,虽百般叮咛,却仍引出不少的乱子,甚至还揪出了藏在宫中的狡猾妖怪。

  冒险仍在继续,师徒间的危机一触即发……



Video

ID                                       : 1

Format                                   : AVC

Format/Info                              : Advanced Video Codec

Format profile                           : High@L4.1

Format settings, CABAC                   : Yes

Format settings, ReFrames                : 4 frames

Codec ID                                 : V_MPEG4/ISO/AVC

Duration                                 : 1h 48mn

Bit rate                                 : 17.0 Mbps

Width                                    : 1 920 pixels

Height                                   : 1 036 pixels

Display aspect ratio                     : 1.85:1

Frame rate mode                          : Constant

Frame rate                               : 23.976 (24000/1001) fps

Color space                              : YUV

Chroma subsampling                       : 4:2:0

Bit depth                                : 8 bits

Scan type                                : Progressive

Bits/(Pixel*Frame)                       : 0.356

Stream size                              : 12.6 GiB (83%)

Writing library                          : x264 core 148 r2665kMod a01e339

Encoding settings                        : cabac=1 / ref=4 / deblock=1:-1:-1 / analyse=0x3:0x133 / me=umh / subme=11 / psy=1 / fade_compensate=0.00 / psy_rd=1.00:0.00 / mixed_ref=1 / me_range=64 / chroma_me=1 / trellis=2 / 8x8dct=1 / cqm=0 / deadzone=21,11 / fast_pskip=0 / chroma_qp_offset=-2 / threads=12 / lookahead_threads=3 / sliced_threads=0 / nr=0 / decimate=0 / interlaced=0 / bluray_compat=0 / constrained_intra=0 / fgo=0 / bframes=10 / b_pyramid=2 / b_adapt=2 / b_bias=0 / direct=3 / weightb=1 / open_gop=0 / weightp=2 / keyint=240 / keyint_min=24 / scenecut=40 / intra_refresh=0 / rc_lookahead=40 / rc=2pass / mbtree=1 / bitrate=17000 / ratetol=1.0 / qcomp=0.70 / qpmin=0 / qpmax=69 / qpstep=4 / cplxblur=20.0 / qblur=0.5 / vbv_maxrate=50000 / vbv_bufsize=30000 / nal_hrd=none / filler=0 / ip_ratio=1.20 / aq=3:0.80

Language                                 : English

Default                                  : Yes

Forced                                   : No


Audio #1

ID                                       : 2

Format                                   : DTS

Format/Info                              : Digital Theater Systems

Mode                                     : 16

Format settings, Endianness              : Big

Codec ID                                 : A_DTS

Duration                                 : 1h 48mn

Bit rate mode                            : Constant

Bit rate                                 : 1 509 Kbps

Channel(s)                               : 6 channels

Channel positions                        : Front: L C R, Side: L R, LFE

Sampling rate                            : 48.0 KHz

Frame rate                               : 93.750 fps (512 spf)

Bit depth                                : 24 bits

Compression mode                         : Lossy

Stream size                              : 1.14 GiB (8%)

Title                                    : Mandarin

Language                                 : Chinese

Default                                  : Yes

Forced                                   : No


Audio #2

ID                                       : 3

Format                                   : DTS

Format/Info                              : Digital Theater Systems

Mode                                     : 16

Format settings, Endianness              : Big

Codec ID                                 : A_DTS

Duration                                 : 1h 48mn

Bit rate mode                            : Constant

Bit rate                                 : 1 509 Kbps

Channel(s)                               : 6 channels

Channel positions                        : Front: L C R, Side: L R, LFE

Sampling rate                            : 48.0 KHz

Frame rate                               : 93.750 fps (512 spf)

Bit depth                                : 24 bits

Compression mode                         : Lossy

Stream size                              : 1.14 GiB (8%)

Title                                    : Cantonese

Language                                 : Chinese

Default                                  : No

Forced                                   : No


Text #1

ID                                       : 4

Format                                   : PGS

Muxing mode                              : zlib

Codec ID                                 : S_HDMV/PGS

Codec ID/Info                            : Picture based subtitle format used on BDs/HD-DVDs

Language                                 : English

Default                                  : Yes

Forced                                   : No


Text #2

ID                                       : 5

Format                                   : PGS

Muxing mode                              : zlib

Codec ID                                 : S_HDMV/PGS

Codec ID/Info                            : Picture based subtitle format used on BDs/HD-DVDs

Language                                 : Chinese

Default                                  : No

Forced                                   : No



 

1 个附件 售价 大小 下载 时间

Journey.to.the.West.The.Demons.Strike.Back.2017.1080p.BluRay.x264.DTS-HDC.torrent 0 金币 76.64K 9 次 3月前


郑重声明:
本站提供的所有影视作品均是在网上搜集任何涉及商业盈利目的均不得使用,否则产生的一切后果将由您自己承担!本站将不对本站的任何内容负任何法律责任!该下载内容仅做宽带测试使用,请在下载后24小时内删除。请购买正版!

激情分享网站:---点击进入---

官方影视交流QQ群:452264497

举报 #1楼
发帖时间:3月前   |   查看数:0   |   回复数:1
scorpioc
登峰造极
总算找到了,并且还能免费下载,给力啊
21天前 举报 #2楼
游客组
快速回复