潇湘夜雨
版主组

[欧美] [Remux] [动作] [2017] [极限特工:终极回归(外挂中字)] xXx Return of Xander Cage 2017 1080p BluRay REMUX.AVC.DTS-HD.MA.TrueHD.7.1.Atmos-FGT 27GB


 


◎译  名 极限特工3:终极回归/极限特工:终极回归/3X反恐暴族:重火力回归(港)/限制级战警3: 重返极限(台)/极限特工3

◎片  名 xXx: The Return of Xander Cage

◎年  代 2017

◎国  家 美国

◎类  别 动作/冒险

◎语  言 英语

◎上映日期 2017-01-05(墨西哥)/2017-01-20(美国)/2017-02-10(中国大陆)

◎IMDb评分  5.3/10 from 34,732 users

◎IMDb链接  http://www.imdb.com/title/tt1293847/

◎豆瓣评分 5.7/10 from 61,956 users

◎豆瓣链接 https://movie.douban.com/subject/3230115/

◎片  长 107分钟

◎导  演 D·J·卡卢索 D.J. Caruso

◎主  演 范·迪塞尔 Vin Diesel

      甄子丹 Donnie Yen

      迪皮卡·帕度柯妮 Deepika Padukone

      吴亦凡 Kris Wu

      鲁比·罗丝 Ruby Rose

      塞缪尔·杰克逊 Samuel L. Jackson

      妮娜·杜波夫 Nina Dobrev

      托尼·贾 Tony Jaa

      托妮·科莱特 Toni Collette

      赫敏·科菲尔德 Hermione Corfield

      阿尔·萨皮恩扎 Al Sapienza

      艾斯·库珀 Ice Cube

      内马尔 Neymar

      罗伊·麦克凯恩 Rory McCann

      迈克尔·比斯平 Michael Bisping


◎简  介


  故事聚焦在由范·迪塞尔带头的的特工小队和以甄子丹为首的反派组织之间的对决。在这部作品中,迪塞尔饰演的特工凯奇不再是孤胆英雄,他将与一群出色的伙伴共同作战:塞缪尔·杰克逊饰演的国安局特工,印度女星迪皮卡·帕度柯妮饰演的与凯奇颇有渊源的女猎人,凭借《吸血鬼日记》走红的妮娜·杜波夫扮演的技术专家,《女子监狱》女星露比·罗丝饰演的狙击手,中国当红偶像演员吴亦凡饰演的特工Nicks。




Video

ID                                       : 1

Format                                   : AVC

Format/Info                              : Advanced Video Codec

Format profile                           : High@L4.1

Format settings, CABAC                   : Yes

Format settings, ReFrames                : 4 frames

Codec ID                                 : V_MPEG4/ISO/AVC

Duration                                 : 1h 46mn

Bit rate mode                            : Variable

Maximum bit rate                         : 28.0 Mbps

Width                                    : 1 920 pixels

Height                                   : 1 080 pixels

Display aspect ratio                     : 16:9

Frame rate mode                          : Constant

Frame rate                               : 23.976 (24000/1001) fps

Color space                              : YUV

Chroma subsampling                       : 4:2:0

Bit depth                                : 8 bits

Scan type                                : Progressive

Title                                    : xXx.Return.of.Xander.Cage.2017.1080p.BluRay.REMUX.AVC.DTS-HD.MA.7.1.Atmos-FGT

Language                                 : English

Default                                  : No

Forced                                   : No


Audio #1

ID                                       : 2

Format                                   : DTS

Format/Info                              : Digital Theater Systems

Format profile                           : MA / Core

Mode                                     : 16

Format settings, Endianness              : Big

Codec ID                                 : A_DTS

Duration                                 : 1h 46mn

Bit rate mode                            : Variable / Constant

Bit rate                                 : Unknown / 1 509 Kbps

Channel(s)                               : 8 channels / 6 channels

Channel positions                        : Front: L C R, Side: L R, Back: L R, LFE / Front: L C R, Side: L R, LFE

Sampling rate                            : 48.0 KHz

Frame rate                               : 93.750 fps (512 spf)

Bit depth                                : 24 bits

Compression mode                         : Lossless / Lossy

Title                                    : xXx.Return.of.Xander.Cage.2017.1080p.BluRay.REMUX.AVC.DTS-HD.MA.7.1.Atmos-FGT

Language                                 : English

Default                                  : Yes

Forced                                   : No


Audio #2

ID                                       : 3

Format                                   : Atmos / TrueHD

Codec ID                                 : A_TRUEHD

Bit rate mode                            : Variable

Maximum bit rate                         : 8 961 Kbps

Channel(s)                               : Object Based / 8 channels

Channel positions                        : Object Based / Front: L C R, Side: L R, Back: L R, LFE

Sampling rate                            :  / 48.0 KHz

Frame rate                               : 1 200.000 fps (40 spf)

Compression mode                         : Lossless

Title                                    : xXx.Return.of.Xander.Cage.2017.1080p.BluRay.REMUX.AVC.DTS-HD.MA.7.1.Atmos-FGT

Language                                 : English

Default                                  : No

Forced                                   : No


Audio #3

ID                                       : 4

Format                                   : AC-3

Format/Info                              : Audio Coding 3

Mode extension                           : CM (complete main)

Format settings, Endianness              : Big

Codec ID                                 : A_AC3

Duration                                 : 1h 46mn

Bit rate mode                            : Constant

Bit rate                                 : 640 Kbps

Channel(s)                               : 6 channels

Channel positions                        : Front: L C R, Side: L R, LFE

Sampling rate                            : 48.0 KHz

Frame rate                               : 31.250 fps (1536 spf)

Compression mode                         : Lossy

Stream size                              : 489 MiB (2%)

Title                                    : xXx.Return.of.Xander.Cage.2017.1080p.BluRay.REMUX.AVC.DTS-HD.MA.7.1.Atmos-FGT

Language                                 : English

Default                                  : No

Forced                                   : No


Audio #4

ID                                       : 5

Format                                   : AC-3

Format/Info                              : Audio Coding 3

Mode extension                           : CM (complete main)

Format settings, Endianness              : Big

Codec ID                                 : A_AC3

Duration                                 : 1h 46mn

Bit rate mode                            : Constant

Bit rate                                 : 640 Kbps

Channel(s)                               : 6 channels

Channel positions                        : Front: L C R, Side: L R, LFE

Sampling rate                            : 48.0 KHz

Frame rate                               : 31.250 fps (1536 spf)

Compression mode                         : Lossy

Stream size                              : 489 MiB (2%)

Title                                    : xXx.Return.of.Xander.Cage.2017.1080p.BluRay.REMUX.AVC.DTS-HD.MA.7.1.Atmos-FGT

Language                                 : French

Default                                  : No

Forced                                   : No


Audio #5

ID                                       : 6

Format                                   : AC-3

Format/Info                              : Audio Coding 3

Mode extension                           : CM (complete main)

Format settings, Endianness              : Big

Codec ID                                 : A_AC3

Duration                                 : 1h 46mn

Bit rate mode                            : Constant

Bit rate                                 : 640 Kbps

Channel(s)                               : 6 channels

Channel positions                        : Front: L C R, Side: L R, LFE

Sampling rate                            : 48.0 KHz

Frame rate                               : 31.250 fps (1536 spf)

Compression mode                         : Lossy

Stream size                              : 489 MiB (2%)

Title                                    : xXx.Return.of.Xander.Cage.2017.1080p.BluRay.REMUX.AVC.DTS-HD.MA.7.1.Atmos-FGT

Language                                 : Spanish

Default                                  : No

Forced                                   : No


Audio #6

ID                                       : 7

Format                                   : AC-3

Format/Info                              : Audio Coding 3

Mode extension                           : CM (complete main)

Format settings, Endianness              : Big

Codec ID                                 : A_AC3

Duration                                 : 1h 46mn

Bit rate mode                            : Constant

Bit rate                                 : 640 Kbps

Channel(s)                               : 6 channels

Channel positions                        : Front: L C R, Side: L R, LFE

Sampling rate                            : 48.0 KHz

Frame rate                               : 31.250 fps (1536 spf)

Compression mode                         : Lossy

Stream size                              : 489 MiB (2%)

Title                                    : xXx.Return.of.Xander.Cage.2017.1080p.BluRay.REMUX.AVC.DTS-HD.MA.7.1.Atmos-FGT

Language                                 : Portuguese

Default                                  : No

Forced                                   : No


Audio #7

ID                                       : 8

Format                                   : AC-3

Format/Info                              : Audio Coding 3

Mode extension                           : CM (complete main)

Format settings, Endianness              : Big

Codec ID                                 : A_AC3

Duration                                 : 1h 46mn

Bit rate mode                            : Constant

Bit rate                                 : 640 Kbps

Channel(s)                               : 6 channels

Channel positions                        : Front: L C R, Side: L R, LFE

Sampling rate                            : 48.0 KHz

Frame rate                               : 31.250 fps (1536 spf)

Compression mode                         : Lossy

Stream size                              : 489 MiB (2%)

Title                                    : xXx.Return.of.Xander.Cage.2017.1080p.BluRay.REMUX.AVC.DTS-HD.MA.7.1.Atmos-FGT

Language                                 : English

Default                                  : No

Forced                                   : No


Text #1

ID                                       : 9

Format                                   : PGS

Muxing mode                              : zlib

Codec ID                                 : S_HDMV/PGS

Codec ID/Info                            : Picture based subtitle format used on BDs/HD-DVDs

Title                                    : English-PGS

Language                                 : English

Default                                  : Yes

Forced                                   : No


Text #2

ID                                       : 10

Format                                   : PGS

Muxing mode                              : zlib

Codec ID                                 : S_HDMV/PGS

Codec ID/Info                            : Picture based subtitle format used on BDs/HD-DVDs

Title                                    : English-FORCED-PGS

Language                                 : English

Default                                  : No

Forced                                   : No


Text #3

ID                                       : 11

Format                                   : PGS

Muxing mode                              : zlib

Codec ID                                 : S_HDMV/PGS

Codec ID/Info                            : Picture based subtitle format used on BDs/HD-DVDs

Title                                    : English-SDH-PGS

Language                                 : English

Default                                  : No

Forced                                   : No


Text #4

ID                                       : 12

Format                                   : PGS

Muxing mode                              : zlib

Codec ID                                 : S_HDMV/PGS

Codec ID/Info                            : Picture based subtitle format used on BDs/HD-DVDs

Title                                    : French-PGS

Language                                 : French

Default                                  : No

Forced                                   : No


Text #5

ID                                       : 13

Format                                   : PGS

Muxing mode                              : zlib

Codec ID                                 : S_HDMV/PGS

Codec ID/Info                            : Picture based subtitle format used on BDs/HD-DVDs

Title                                    : French-FORCED-PGS

Language                                 : French

Default                                  : No

Forced                                   : No


Text #6

ID                                       : 14

Format                                   : PGS

Muxing mode                              : zlib

Codec ID                                 : S_HDMV/PGS

Codec ID/Info                            : Picture based subtitle format used on BDs/HD-DVDs

Title                                    : Spanish-PGS

Language                                 : Spanish

Default                                  : No

Forced                                   : No


Text #7

ID                                       : 15

Format                                   : PGS

Muxing mode                              : zlib

Codec ID                                 : S_HDMV/PGS

Codec ID/Info                            : Picture based subtitle format used on BDs/HD-DVDs

Title                                    : Spanish-FORCED-PGS

Language                                 : Spanish

Default                                  : No

Forced                                   : No


Text #8

ID                                       : 16

Format                                   : PGS

Muxing mode                              : zlib

Codec ID                                 : S_HDMV/PGS

Codec ID/Info                            : Picture based subtitle format used on BDs/HD-DVDs

Title                                    : Portuguese-PGS

Language                                 : Portuguese

Default                                  : No

Forced                                   : No


Text #9

ID                                       : 17

Format                                   : PGS

Muxing mode                              : zlib

Codec ID                                 : S_HDMV/PGS

Codec ID/Info                            : Picture based subtitle format used on BDs/HD-DVDs

Title                                    : Portuguese-FORCED-PGS

Language                                 : Portuguese

Default                                  : No

Forced                                   : No


Menu

00:00:00.000                             : en:Chapter 01

00:07:09.137                             : en:Chapter 02

00:12:00.511                             : en:Chapter 03

00:22:38.106                             : en:Chapter 04

00:27:56.257                             : en:Chapter 05

00:38:27.763                             : en:Chapter 06

00:46:59.650                             : en:Chapter 07

00:52:45.620                             : en:Chapter 08

01:02:10.059                             : en:Chapter 09

01:11:50.180                             : en:Chapter 10

01:18:35.252                             : en:Chapter 11

01:28:42.734                             : en:Chapter 12

01:37:57.162                             : en:Chapter 13




郑重声明:
本站提供的所有影视作品均是在网上搜集任何涉及商业盈利目的均不得使用,否则产生的一切后果将由您自己承担!本站将不对本站的任何内容负任何法律责任!该下载内容仅做宽带测试使用,请在下载后24小时内删除。请购买正版!

激情分享网站:---点击进入---

官方影视交流QQ群:452264497

举报 #1楼
发帖时间:3月前   |   查看数:0   |   回复数:1
scorpioc
登峰造极
论坛挺给力的,干净简洁,收藏了!
21天前 举报 #2楼
游客组
快速回复