潇湘夜雨
版主组

[欧美] [全高清1080] [动作] [2017] [极限特工:终极回归(外挂中字)] xXx Return of Xander Cage 2017 1080p BluRay x264 AC3-GECKOS 7.66G


 


◎译  名 极限特工:终极回归/3X反恐暴族:重火力回归(港)/限制级战警3: 重返极限(台)/极限特工3

◎片  名 xXx: The Return of Xander Cage

◎年  代 2017

◎国  家 美国

◎类  别 动作/冒险

◎语  言 英语

◎IMDb评分  5.4/10 from 31455 users 

◎IMDb链接  http://www.imdb.com/title/tt129384 

◎片  长 1h 47mn

◎导  演 D·J·卡卢索 D.J. Caruso

◎主  演 范·迪塞尔 Vin Diesel

      甄子丹 Donnie Yen

      迪皮卡·帕度柯妮 Deepika Padukone

      吴亦凡 Kris Wu

      鲁比·罗丝 Ruby Rose

      塞缪尔·杰克逊 Samuel L. Jackson

      妮娜·杜波夫 Nina Dobrev

      托尼·贾 Tony Jaa

      托妮·科莱特 Toni Collette

      赫敏·科菲尔德 Hermione Corfield

      阿尔·萨皮恩扎 Al Sapienza

      艾斯·库珀 Ice Cube

      内马尔 Neymar

      罗伊·麦克凯恩 Rory McCann

      迈克尔·比斯平 Michael Bisping


◎简 介 



  故事聚焦在由范·迪塞尔带头的的特工小队和以甄子丹为首的反派组织之间的对决。在这部作品中,迪塞尔饰演的特工凯奇不再是孤胆英雄,他将与一群出色的伙伴共同作战:塞缪尔·杰克逊饰演的国安局特工,印度女星迪皮卡·帕度柯妮饰演的与凯奇颇有渊源的女猎人,凭借《吸血鬼日记》走红的妮娜·杜波夫扮演的技术专家,《女子监狱》女星露比·罗丝饰演的狙击手,中国当红偶像演员吴亦凡饰演的特工Nicks。


Video

ID                                       : 1

Format                                   : AVC

Format/Info                              : Advanced Video Codec

Format profile                           : High@L4.1

Format settings, CABAC                   : Yes

Format settings, ReFrames                : 5 frames

Codec ID                                 : V_MPEG4/ISO/AVC

Duration                                 : 1h 46mn

Bit rate                                 : 9 619 Kbps

Width                                    : 1 920 pixels

Height                                   : 800 pixels

Display aspect ratio                     : 2.40:1

Frame rate mode                          : Constant

Frame rate                               : 23.976 fps

Color space                              : YUV

Chroma subsampling                       : 4:2:0

Bit depth                                : 8 bits

Scan type                                : Progressive

Bits/(Pixel*Frame)                       : 0.261

Stream size                              : 7.17 GiB (94%)

Writing library                          : x264 core 148 r2744 b97ae06

Encoding settings                        : cabac=1 / ref=5 / deblock=1:0:0 / analyse=0x3:0x133 / me=umh / subme=7 / psy=1 / psy_rd=1.00:0.00 / mixed_ref=1 / me_range=16 / chroma_me=1 / trellis=1 / 8x8dct=1 / cqm=0 / deadzone=21,11 / fast_pskip=0 / chroma_qp_offset=-2 / threads=25 / lookahead_threads=4 / sliced_threads=0 / nr=0 / decimate=1 / interlaced=0 / bluray_compat=0 / constrained_intra=0 / bframes=3 / b_pyramid=2 / b_adapt=1 / b_bias=0 / direct=1 / weightb=1 / open_gop=0 / weightp=2 / keyint=250 / keyint_min=23 / scenecut=40 / intra_refresh=0 / rc_lookahead=40 / rc=2pass / mbtree=1 / bitrate=9619 / ratetol=1.0 / qcomp=0.60 / qpmin=0 / qpmax=69 / qpstep=4 / cplxblur=20.0 / qblur=0.5 / ip_ratio=1.40 / aq=1:1.00

Language                                 : English

Default                                  : Yes

Forced                                   : No


Audio

ID                                       : 2

Format                                   : AC-3

Format/Info                              : Audio Coding 3

Mode extension                           : CM (complete main)

Format settings, Endianness              : Big

Codec ID                                 : A_AC3

Duration                                 : 1h 46mn

Bit rate mode                            : Constant

Bit rate                                 : 640 Kbps

Channel(s)                               : 6 channels

Channel positions                        : Front: L C R, Side: L R, LFE

Sampling rate                            : 48.0 KHz

Frame rate                               : 31.250 fps (1536 spf)

Compression mode                         : Lossy

Stream size                              : 489 MiB (6%)

Language                                 : English

Default                                  : Yes

Forced                                   : No


Text

ID                                       : 3

Format                                   : UTF-8

Codec ID                                 : S_TEXT/UTF8

Codec ID/Info                            : UTF-8 Plain Text

Duration                                 : 45mn 40s

Bit rate                                 : 0 bps

Count of elements                        : 14

Stream size                              : 342 Bytes (0%)

Title                                    : English-Forced

Language                                 : English

Default                                  : Yes

Forced                                   : Yes


Menu

00:00:00.000                             : en:00:00:00.000

00:07:09.137                             : en:00:07:09.137

00:12:00.511                             : en:00:12:00.511

00:22:38.107                             : en:00:22:38.107

00:27:56.258                             : en:00:27:56.258

00:38:27.764                             : en:00:38:27.764

00:46:59.650                             : en:00:46:59.650

00:52:45.621                             : en:00:52:45.621

01:02:10.060                             : en:01:02:10.060

01:11:50.181                             : en:01:11:50.181

01:18:35.252                             : en:01:18:35.252

01:28:42.734                             : en:01:28:42.734

01:37:57.163                             : en:01:37:57.163



 

2 个附件 售价 大小 下载 时间

xXx.Return.of.Xander.Cage.2017.1080p.BluRay.x264-GECKOS.torrent 0 金币 77.52K 3 次 11月前

xXx- Return xXx.Return.of.Xander.Cage.2017.BluRay.x264.Atmos.TrueHD.7.1-HDChina.chn.zip 0 金币 30.06K 1 次 11月前


郑重声明:
本站提供的所有影视作品均是在网上搜集任何涉及商业盈利目的均不得使用,否则产生的一切后果将由您自己承担!本站将不对本站的任何内容负任何法律责任!该下载内容仅做宽带测试使用,请在下载后24小时内删除。请购买正版!

激情分享网站:---点击进入---

官方影视交流QQ群:452264497

举报 #1楼
发帖时间:11月前   |   查看数:0   |   回复数:1
scorpioc
登峰造极
论坛挺给力的,干净简洁,收藏了!
8月前 举报 #2楼
游客组
快速回复